快捷导航
芒果云盘
查看: 765|回复: 4
收起左侧

[日语动漫] [转载]进击的巨人 第三季 Part.2 50-59】[百度网盘] [2019]

[复制链接]

签到天数: 343 天

连续签到: 1 天

[LV.8]以坛为家I

发表于 2021-2-10 12:50:18 | 显示全部楼层 |阅读模式

更精彩请登录小云社区喔

您需要 登录 才可以下载或查看,没有帐号?免费注册

x


感谢您的阅读,如小云社区收录的资源涉及您的版权请维权

如资源失效 请这里举报 如发资源请这里发布& R# `9 @" X! L) H9 h
! `9 I/ U! y. d% d( I- j+ R
7 [' R1 L5 D6 D) \! L* [
113136ava7q4vvbr541e17.png
* ^9 l3 q5 R' R; t2 k# R! m: i- z1 V; @) f4 Q) ]% U7 Z# X

7 f( j/ ]7 J8 h6 P) ]& C$ c
$ y8 R) t0 L7 @( H" o+ R
5 k& Z" e+ v# U- Y/ r进击的巨人 第三季 Part.2
2 ^0 ]1 E4 G- u. i6 A+ t  n
# v  e2 b8 y0 N' D0 m
◎译  名 进击的巨人 第三季 Part.2 / 进击的巨人 Season3 Part.2; ^# L/ c/ O% p9 h" Q  r) ~
◎片  名 進撃の巨人 Season3 Part.2( N# ?7 K  l8 k$ S/ Y& i  i! T
◎年  代 20195 f% B! H" W0 z: m% P
◎产  地 日本1 z  [8 |4 s' T5 s) F7 Y
◎类  别 剧情 / 动作 / 科幻 / 动画7 ?5 k- q. r8 X9 k
◎语  言 日语
1 o" e8 J; H0 k  ^◎上映日期 2019-04-28(日本)" V. \4 b( i9 |* Z2 X. i
◎IMDb链接  http://www.imdb.com/title/tt9038682$ y5 h( e0 k8 u, v( x) U+ d
◎豆瓣评分 9.8/10 from 216 users2 L! R9 O) T' u  a" o  s
◎豆瓣链接 https://movie.douban.com/subject/30353357/0 d1 o1 }2 n2 O( R# F
◎集  数 12
7 y) {8 c2 E  ]/ X7 @◎片  长 24分钟
* v/ r! ^2 p7 S, T◎导  演 荒木哲郎 Tetsuro Araki / 肥塚正史
' G: K& A9 E) I* B9 ^1 G+ R  ?◎编  剧 小林靖子 Yasuko Kobayashi / 谏山创 Hajime Isayama
$ H/ `' e! h  V◎主  演 梶裕贵 Yûki Kaji
: i! H. z7 r7 ~( F      石川由依 Yui Ishikawa0 _& `. k9 ^5 a2 q
      井上麻里奈 Marina Inoue
* a- ?. x, H& u) H6 [      神谷浩史 Hiroshi Kamiya
8 s. t8 I  M! Y      小野大辅 Daisuke Ono) T3 V  _7 Q2 S# b
      下野纮 Hiro Shimono3 H, y% e. |1 x
      小林优 Yu Kobayashi
' z7 P) ^3 k! _! C7 o" [0 v      三上枝织 Shiori Mikami* B% u: j9 {1 I! r: m
      谷山纪章 Kishô Taniyama
/ j1 u! \( ?' B; h2 Q+ q      细谷佳正 Yoshimasa Hosoya
; T4 \# H3 V# o3 _      桥诘知久 Tomohisa Hashizume3 Q, R# B! \$ x, J
      朴璐美 Romi Pak
; C+ x+ y( ~9 h; L3 |$ y; Z      子安武人 Takehito Koyasu
6 @0 b; X1 W/ E
4 D% H( b7 z# H
/ g( v" Y. I5 k' l' J1 Y◎标  签 进击的巨人 | 日本 | 动漫 | 动画 | 2019 | 热血 | 日本动画 | 日本动漫
2 l& W+ ^* t2 Q; q" u3 w! N1 m9 c' D9 p( _
◎简  介  
& i( A) b4 l5 J7 f7 |% _& r2 c, f$ C' ?7 K! x2 x
  为了赢得真正的胜利,调查军团决定执行夺回玛利亚之墙的作战。作战内容是利用艾伦的硬质化能力将位于玛利亚之墙希干希纳区城墙上的破洞封住。而且还要查明沉睡在艾伦老家地下室的「真相」。但是,「野兽巨人」等巨人就在那里等着他们!' B  x2 m8 Z. a; u9 U! i; ?  t

! s' P5 l' m4 N引用
7 v; `& E7 _4 t! `0 n, `, I* i4 _2 A5 a) Q
% W8 a" M2 M5 G: M1 Z- @6 [
General0 e9 A/ d+ N4 C0 A  d) O& E/ q
Unique ID                      : 284786382496928321298266750524515290728 (0xD63FDCB7DBBA02045AD393D5F26A0E68)$ F  {6 u. R- m4 m7 Q+ z. a5 Z
Format                         : Matroska; @. z9 I# `5 ]7 @  f* P& g
Format version                 : Version 43 [* k, @* t( L+ Q5 `
File size                      : 689 MiB
$ q. J% }. Z; T+ k7 VDuration                       : 23 min 57 s3 w0 \' q7 u! G5 P" J
Overall bit rate               : 4 021 kb/s
7 K! o0 e" O+ Y( [5 wEncoded date                   : UTC 2019-07-02 00:13:24
' ^; X  O# a) \Writing application            : mkvmerge v30.1.0 ('Forever And More') 64-bit0 ?4 U/ s0 y; O8 @. _
Writing library                : libebml v1.3.6 + libmatroska v1.4.9
# k2 z; x% u3 D6 F* }Attachments                    : A-OTF-RyuminPr5-Bold.YL8NGGU1.otf / A-OTF-RyuminPr5-Medium.EDRW6RBD.otf / FZXIYSK.HJPHU5VH.ttf / 方正准圆_GBK.DBM7P617.ttf / 方正准雅宋_GBK.T8OBR50E.ttf
; q$ E" k( p9 k( P0 Y/ f% N
$ J& [2 W; E3 [6 A+ ~7 p4 q* g# dVideo- k' C/ q+ S0 v
ID                             : 1
5 m6 f* O9 L5 i4 ?7 Y0 h! P* D- `Format                         : HEVC) P9 k0 p$ r# v  g
Format/Info                    : High Efficiency Video Coding) l' C0 R$ p3 X4 j2 @3 D
Format profile                 : Main 10@L4@Main$ E2 e" d! C: M, y" p1 j
Codec ID                       : V_MPEGH/ISO/HEVC. e- E, u8 `$ M
Duration                       : 23 min 55 s) s, W' Q; ]; g- B- t8 {' R
Bit rate                       : 3 893 kb/s5 r8 V* q/ ?; p  x
Width                          : 1 920 pixels: B% K, Q5 e) E' _  O  e% @
Height                         : 1 080 pixels
% g7 \: Q% z# \7 ?+ MDisplay aspect ratio           : 16:91 L0 W2 K5 I+ E5 ?
Frame rate mode                : Constant
) h/ u: w9 R$ h% o( _9 G0 p. f' [0 GFrame rate                     : 23.976 (24000/1001) FPS
( C  F+ a/ c% W! \0 |: H, JColor space                    : YUV
2 `' ~% M4 H/ h6 w1 SChroma subsampling             : 4:2:0# i* v8 g2 L+ p+ w
Bit depth                      : 10 bits/ p& E7 v$ g6 P. K
Bits/(Pixel*Frame)             : 0.0781 L$ L0 H3 `: B* A1 }) g
Stream size                    : 666 MiB (97%)
# i7 `( {0 x# ]& J/ D9 P  sWriting library                : x265 2.6+9-gd71a3e318+19:[Windows][GCC 7.1.0][64 bit] Asuna 10bit
3 @6 x1 Q& {& G9 W: XEncoding settings              : rc=crf / crf=18.0000 / qcomp=0.65 / qpstep=4 / aq-mode=3 / aq-strength=0.70 / cbqpoffs=-2 / crqpoffs=-2 / ipratio=1.40 / pbratio=1.20 / psy-rd=1.20 / psy-rdoq=1.00 / deblock=-1:-1 / ref=4 / bframes=6 / b-adapt=2 / bframe-bias=0 / b-pyramid / b-intra / weightp / weightb / min-keyint=1 / max-keyint=360 / rc-lookahead=80 / scenecut=40 / max-cu-size=32 / min-cu-size=8 / me=3 / subme=4 / merange=44 / rdoq-level=2 / rd=4 / rdpenalty=1 / ----- / cutree / no-sao / no-rect / no-amp / no-open-gop / wpp / no-pmode / no-pme / no-psnr / no-ssim / nr-intra=0 / nr-inter=0 / no-constrained-intra / no-strong-intra-smoothing / max-tu-size=32 / tu-inter-depth=2 / tu-intra-depth=2 / limit-tu=4 / qg-size=32 / qpmax=69 / qpmin=0 / ----- / cpuid=1173503 / frame-threads=3 / numa-pools=12 / log-level=2 / input-csp=1 / input-res=1920x1080 / interlace=0 / level-idc=0 / high-tier=1 / uhd-bd=0 / no-allow-non-conformance / no-repeat-headers / no-aud / no-hrd / info / hash=0 / no-temporal-layers / lookahead-slices=4 / no-intra-refresh / dynamic-rd=0.00 / no-ssim-rd / signhide / no-tskip / max-merge=3 / limit-refs=2 / limit-modes / temporal-mvp / no-analyze-src-pics / no-sao-non-deblock / no-early-skip / rskip / no-fast-intra / no-tskip-fast / no-cu-lossless / no-splitrd-skip / no-rd-refine / analysis-reuse-mode=0 / no-lossless / zone-count=0 / no-strict-cbr / no-rc-grain / no-const-vbv / sar=0 / overscan=0 / videoformat=5 / range=0 / colorprim=2 / transfer=2 / colormatrix=2 / chromaloc=0 / display-window=0 / max-cll=0,0 / min-luma=0 / max-luma=1023 / log2-max-poc-lsb=8 / vui-timing-info / vui-hrd-info / slices=1 / no-opt-qp-pps / no-opt-ref-list-length-pps / no-multi-pass-opt-rps / scenecut-bias=0.05 / no-opt-cu-delta-qp / no-aq-motion / no-hdr / no-hdr-opt / no-dhdr10-opt / analysis-reuse-level=5 / scale-factor=0 / refine-intra=0 / refine-inter=0 / refine-mv=0 / no-limit-sao / ctu-info=0 / no-lowpass-dct / refine-mv-type=0 / copy-pic=1
; l# _: ~3 u' }* oDefault                        : Yes
! {2 l2 a# @! c5 X. h* Y' y8 ^Forced                         : No, Z" b! `. H9 H1 Z* a% y

+ N# i' l7 T6 l! ?4 gAudio- i6 e0 ]0 [: O( J) |% s
ID                             : 2
0 I5 E- Z9 H+ A, X; ~Format                         : AAC LC! q" N: j6 z& y- U' ]) X$ L, R
Format/Info                    : Advanced Audio Codec Low Complexity, u- P( Y! |4 u$ B. O
Codec ID                       : A_AAC-2, Q' s( w2 B2 S1 \
Duration                       : 23 min 54 s% F# w' O- v) ?! [
Bit rate                       : 128 kb/s
/ Z0 D( ~) U; Z6 ^Channel(s)                     : 2 channels
! s2 A  S7 Z+ ?3 n* r9 r2 jChannel layout                 : L R6 o1 n2 ?: d8 Q! E0 e
Sampling rate                  : 44.1 kHz
5 s0 _; j) ^1 p5 gFrame rate                     : 43.066 FPS (1024 SPF)
' z* d; i" h2 v( Y$ T! ^Compression mode               : Lossy
. K$ k. S( O, r7 n# lStream size                    : 21.9 MiB (3%)/ F; [2 V7 m- [1 u$ S
Language                       : Japanese% Q" S3 x7 A4 G
Default                        : Yes5 D" ]9 _! a' O# R- }
Forced                         : No# F) y& v7 V. Z' L

4 ~$ s- R! p. Y* Z: l' f8 u1 UText #1
  Z  q% t8 ~/ Y6 gID                             : 3
/ b" }* @, F& J) b' G4 K% X' I) `Format                         : ASS
8 q, s" s/ q( Z) G' Z+ hCodec ID                       : S_TEXT/ASS" w; U. _" n, @6 a
Codec ID/Info                  : Advanced Sub Station Alpha
5 \  a3 z. P! U* iDuration                       : 23 min 57 s1 f& ]& k3 i* c2 @# w1 p; W
Bit rate                       : 120 b/s+ J$ P' a- y3 `1 }/ b
Count of elements              : 425  ^( Q: U1 k* V% Q* t
Compression mode               : Lossless
$ M6 B* k( T7 l0 F( k0 [Stream size                    : 21.1 KiB (0%)
& F, _& E0 Q; ^* A- L, p6 X% UTitle                          : SC
) D% C6 h) `! r# G4 RLanguage                       : Chinese8 U: ^: R6 i1 p; d& h
Default                        : Yes8 T( f$ R. B( \
Forced                         : No
/ O1 ^/ s- {+ f  A" I+ g- B. C, H1 e% E, Y
Text #2
- o7 @, W2 G: _5 L' W* n" CID                             : 47 x7 d0 N" L* ?$ l- `
Format                         : ASS' M) e& H! [; K. U8 ^* D* i
Codec ID                       : S_TEXT/ASS
) J" H0 [) O( y; [4 D1 {Codec ID/Info                  : Advanced Sub Station Alpha
% m0 U( b  H* `  u5 ?# m! ^Duration                       : 23 min 57 s
. ]% b; j# p; A, Z5 H7 S8 MBit rate                       : 120 b/s: z5 J1 L4 n& T; @* P, _6 I/ P
Count of elements              : 425
( c, q/ j9 d) r  X9 R5 U* {9 vCompression mode               : Lossless; Q; Q1 {# s. l
Stream size                    : 21.1 KiB (0%)6 q/ D) j# v0 k
Title                          : TC) u, T/ j6 J: K( p, n* N
Language                       : Chinese! @! j4 i; c8 l  k
Default                        : No
; x7 H: |) C2 ?5 ]! y1 V
7 w: |- G) m1 u. j$ u& P

7 H6 [8 w: K& U/ F( _  Y9 |, Ehttps://pan.baidu.com/share/init?surl=SjpjZlaZZBipkFjQ19Rvqw
3 h& u' G, E# X/ ]+ P+ }
游客需要 50金钱 手机用户按这里支付,如积分不足请   充值金钱 ,如充值了直接支付就可以了!


电脑获取内容
3 `( i, e1 o" c) `+ K+ K5 K

4 o! _$ z: K" c8 Z; \, @
! p6 J* |+ D4 Y8 Z' Q( q3 N

签到天数: 347 天

连续签到: 2 天

[LV.8]以坛为家I

发表于 2021-2-10 12:50:23 来自手机版 | 显示全部楼层
我也顶起出售广告位
回复 支持 反对

使用道具 举报

签到天数: 339 天

连续签到: 2 天

[LV.8]以坛为家I

发表于 2021-2-17 15:09:06 | 显示全部楼层
前排支持下了哦~
回复 支持 反对

使用道具 举报

签到天数: 358 天

连续签到: 1 天

[LV.8]以坛为家I

发表于 3 天前 | 显示全部楼层
好帖必须得顶起
回复 支持 反对

使用道具 举报

签到天数: 339 天

连续签到: 1 天

[LV.8]以坛为家I

发表于 前天 01:49 来自手机版 | 显示全部楼层
顶起顶起顶起
回复 支持 反对

使用道具 举报

您需要登录后才可以回帖 登录 | 免费注册

本版积分规则

上个主题 下个主题 快速回复 收藏帖子 返回列表

在线客服|违规小黑屋|版权删除:moke08com@163.com|小云社区,小说论坛,同人小说 繁体中文

GMT+8, 2021-3-1 06:07 , Processed in 0.405601 second(s), 43 queries , Gzip On.

快速回复 返回顶部 返回列表